#TITLE:Take It Easy!;
#SUBTITLE:;
#ARTIST:Hatsune Miku;
#TITLETRANSLIT:;
#SUBTITLETRANSLIT:;
#ARTISTTRANSLIT:;
#CREDIT:;
#BANNER:Hatsune Miku - Take It Easy!-banner.jpg;
#BACKGROUND:Hatsune Miku - Take It Easy!-bg.jpg;
#LYRICSPATH:Hatsune Miku - Take It Easy!.lrc;
#CDTITLE:CDTitle.png;
#MUSIC:Hatsune Miku - Take It Easy!.ogg;
#OFFSET:0.180;
#SAMPLESTART:43.720;
#SAMPLELENGTH:12.000;
#SELECTABLE:YES;
#BPMS:0.000=221.350;
#STOPS:267.000=0.272
,270.000=0.272
,273.000=0.272
;
#BGCHANGES:;
// cache tags:
#FIRSTBEAT:9.000;
#LASTBEAT:418.000;
#SONGFILENAME:songs/Vocaloid Party/Hatsune Miku - Take It Easy!/Hatsune Miku - Take It Easy!.sm;
#HASMUSIC:1;
#HASBANNER:1;
#MUSICLENGTH:115.087;
// end cache tags

//---------------dance-single - ----------------
#NOTES:
     dance-single:
     :
     Challenge:
     10:
     0.835,1.000,0.521,0.356,1.000,566.000,60.000,41.000,81.000,0.000:
0000
0000
0000
0000
,
0000
0000
0000
0000
,
0000
0000
0000
1000
0000
0000
0001
0000
0200
0000
0000
0000
,
0000
0000
0000
0000
,
0300
0000
0000
0M10
0000
0000
1000
0000
0002
0000
0000
0000
,
0000
0000
0000
0000
,
0003
0000
0000
010M
0000
0000
0010
0000
2000
0000
0000
0000
,
0000
0000
0000
0000
,
3000
0000
0000
M001
0000
0000
0100
0000
0020
0000
0000
0000
,
0000
0000
0000
0000
0000
0000
0000
0000
0000
0000
0000
1030
,
0100
0000
0100
0000
0000
1000
0010
0000
0000
0120
0000
0000
,
0030
0000
0200
0000
0000
0000
0301
0000
0000
2010
0000
0000
,
0000
0000
3000
0000
0000
1000
0001
0000
0000
0102
0000
0000
,
0003
0000
0020
0000
0000
0000
0031
0000
0000
2100
0000
0000
,
3010
0000
0100
0000
0010
0000
1000
0000
0000
0000
0001
0000
0100
0000
0000
0M00
0000
0000
0020
0000
0000
0000
0000
0000
,
0130
0000
0000
0000
1000
0000
0000
0000
0000
0000
0001
0000
0100
0000
0000
0M00
0000
0000
2000
0000
0000
0000
0000
0000
,
3010
0000
0000
0000
0100
0000
0000
0000
0000
0000
0100
0000
0001
0000
0000
000M
0000
0000
0020
0000
0000
0000
0000
0000
,
0130
0000
0000
0000
0010
0000
0000
0000
0000
0000
1000
0000
0100
0000
0000
0M00
0000
0000
0002
0000
0000
0000
0000
0000
,
0013
0000
0100
0000
0010
0000
0001
0000
0000
0000
1000
0000
0100
0000
0000
0000
0000
0000
0220
0000
0000
0300
0000
0000
,
0M31
0000
0000
0000
0100
0000
0000
0000
0000
0000
0010
0000
0100
0000
0000
0000
0000
0000
0202
0000
0000
0003
0000
0000
,
031M
0000
0000
0000
0010
0000
0000
0000
0000
0000
0100
0000
0010
0000
0000
0000
0000
0000
2020
0000
0000
3000
0000
0000
,
M130
0000
0100
0000
0000
0001
0100
0000
0000
0011
0000
0000
,
1100
0000
0000
1000
0001
1000
0001
1000
0001
1000
0001
1000
,
0001
1000
0001
0100
0010
0100
0010
0100
0010
0100
0000
0101
,
0000
0000
0100
0000
0000
0000
1001
0000
0000
M000
0000
0000
0100
0000
0000
0000
0001
0000
0200
0000
0000
0000
0000
0000
,
0310
0000
0000
1000
0000
0010
0000
0000
2000
0000
0000
3010
,
0100
0000
0001
0000
0000
0000
0100
0000
0001
0200
0000
0000
,
0320
0000
0000
1030
0000
0010
0000
0000
0100
0000
0000
0100
,
0000
0000
0000
0101
0000
0000
0001
0000
0000
1000
0000
0100
,
0020
0000
0000
0031
0000
0100
0000
0000
0020
0000
0000
1030
,
0100
0000
0010
0000
0000
0001
1000
00M0
000M
0100
0000
M000
,
0000
0000
0010
0000
0M00
0001
0100
00M0
000M
0010
0000
1000
,
0100
1000
0010
0100
0000
0000
0100
0000
0001
0010
0000
0000
,
0002
0000
0000
1003
0000
0010
0000
0000
0200
0000
0000
0301
,
1000
0000
0010
0100
0000
0000
0010
0000
1000
0020
0000
0000
,
0230
0000
0000
0301
0000
1000
0000
0000
0100
0000
0000
0100
,
0000
0000
1000
0001
0000
0000
0011
0000
0010
0200
0000
0000
,
1300
0000
0000
0001
0000
0100
0000
0000
0020
0000
0000
1030
,
0100
0000
0010
0000
0000
0100
1000
00M0
0M00
0001
0000
M000
,
0000
0000
0100
0000
000M
0010
1000
0M00
00M0
0001
0100
0010
,
1000
0100
0010
0001
0000
0000
0100
0000
0000
0010
0000
1000
,
0100
0000
0011
0000
0000
0100
0010
0000
0000
1000
0000
0001
,
0010
0000
0001
0010
0000
0000
0100
0000
0000
1000
0000
0000
,
0010
0000
1001
0000
0000
0100
0001
0000
0000
0100
0000
0000
,
0001
0000
0000
1100
0000
0000
1000
0000
0000
0001
0000
1000
,
0100
0000
0011
0000
0000
1000
0100
0000
0000
1000
0000
0000
,
0001
0000
0110
0000
0000
0001
1MM0
0000
0000
0MM1
0000
0000
,
1000
0000
0110
0000
0000
1000
0MM1
0000
0000
1MM0
0000
0000
,
0001
0010
0100
1000
0000
0000
0010
0000
0000
0100
0000
0001
,
1000
0000
0101
0000
0000
0010
1000
0000
0000
0010
0000
1000
,
0100
0000
1000
0100
0000
0000
1000
0000
0000
0001
0000
0000
,
0010
0000
0110
0000
0000
1000
0010
0000
0000
0100
0000
0000
,
0001
0000
0000
0110
0000
0000
0001
0000
0000
0100
0000
0010
,
1000
0000
1100
0000
0000
0100
0010
0000
0000
0001
0000
0000
,
1000
0000
1010
0000
0000
0001
MM10
0000
0000
MM01
0000
0000
,
1000
0000
1100
0000
0000
0010
M10M
0000
0000
M01M
0000
0000
,
0100
0000
0000
0001
0100
0001
0100
0001
0100
0001
0100
0001
,
0100
0001
0100
0010
1000
0010
1000
0010
1000
0110
0000
0110
,
0000
0110
0000
0110
0000
0000
1000
0000
0000
0010
0000
0000
,
0100
0000
0010
0000
0000
1000
0000
0000
0001
0100
0000
0000
,
0010
0000
1000
0000
0000
0010
0100
0000
0000
0001
0000
0000
,
0100
0000
0010
0000
0000
1000
0000
0000
0010
0100
0000
0000
,
0001
0000
0010
0000
0000
0100
1000
0000
0000
0001
0000
0000
,
0100
0000
0010
0000
0000
1000
0000
0000
0001
0100
0000
0000
,
0010
0000
0100
0000
0000
0010
0100
0000
0000
0001
0000
0000
,
1000
0000
0001
0000
0000
0100
0000
0000
0010
0100
0010
0100
,
0010
0000
0000
0000
0000
0000
1000
0000
0100
0000
0010
0000
0001
0000
1000
0000
0100
0000
0011
0000
0000
MMMM
0000
0000
,
0001
0000
0010
0000
0100
0000
1000
0000
0001
0000
0010
0000
1100
0000
0000
MMMM
0000
0000
0100
0000
0010
0000
0001
0000
,
1000
0000
0100
0000
0010
0000
1001
0000
0000
MMMM
0000
0000
0010
0000
0001
0000
1000
0000
0100
0000
0010
0000
0001
0000
,
1100
0000
0010
MM01
0010
0001
0010
0000
0001
0200
0000
0000
,
0040
0000
0000
0030
0000
0040
0300
0000
0130
0002
0000
0000
,
4000
0000
0000
0000
0000
0000
3003
0000
0010
2000
0000
0000
,
0400
0000
0000
0300
0000
0400
3000
0000
0310
0002
0000
0000
,
1000
0000
0000
1003
0000
0000
0110
0000
1000
0020
0000
0000
,
4000
0000
0000
3000
0000
4000
0030
0000
3001
0200
0000
0000
,
0004
0000
0000
0000
0000
0000
0303
0000
0100
0020
0000
0000
,
0400
0000
0000
0300
0000
0400
0030
0000
0301
1000
0000
0000
,
0001
1000
0001
1000
0001
1000
0001
0000
0000
0100
0000
0000
,
0001
0000
0100
0010
0000
1010
0000
0000
0100
0010
0000
0000
,
1001
0000
0001
0100
0000
0010
0100
0000
0000
0001
0000
0000
,
0100
0000
0000
0001
0000
1010
0000
0000
0100
0001
0000
0000
,
0101
0101
1100
0010
,
0001
0000
1000
0010
0000
0110
0000
0000
1000
0100
0000
0000
,
0010
0000
0000
0001
0000
1M1M
0000
0000
0100
M01M
0000
0000
,
1MM1
0000
0000
0100
0000
MM11
0000
0000
0001
M1M0
0000
0000
,
11MM
0000
0000
0010
0100
0010
0001
0000
0000
1000
0000
0000
,
0010
0000
0100
0010
0000
1000
0000
0000
0100
0010
0000
0000
,
0011
0000
0010
0100
0000
0010
0001
0000
0000
1000
0000
0000
,
0010
0000
0000
0100
0000
0001
0000
0000
1000
0010
0000
0000
,
1010
1010
0110
0100
,
0001
0000
1000
0010
0000
0100
0000
0000
0001
0010
0000
0000
,
0011
0000
0000
0001
0000
11MM
0000
0000
0001
MM10
0000
0000
,
11MM
0000
0000
1000
0000
M1M1
0000
0000
0010
1M0M
0000
0010
,
1000
0010
0100
0001
0100
0010
0100
0000
0000
0001
0000
1000
,
0000
0000
0010
0100
0000
0010
1000
0000
0001
0100
0001
0100
,
0010
0000
1000
0010
1000
0010
0100
0000
0001
0100
0010
1000
,
0000
0001
1000
0100
1000
0001
0010
0100
1000
0001
1000
0001
,
0100
0000
0010
1000
0001
0100
0010
0000
0010
0000
0010
1000
,
0001
0010
0100
1000
0010
0100
0010
1000
0010
0100
0001
1000
,
0001
0100
0010
1000
0010
0100
0001
0000
1000
0010
1000
0001
,
0100
0001
1000
0010
1000
0010
0100
0001
0010
0001
0100
0001
,
1000
0100
0010
0001
0000
0001
1000
0000
1000
0010
0000
0010
,
0100
0000
0100
0001
0000
0001
1000
0000
1000
0100
0000
0000
,
0101
0101
2002
0000
,
3003
0000
0MM0
0000
0000
0MM0
0000
0000
0MM0
0000
0000
0000
0000
0000
0000
0000
;

//---------------dance-single - ----------------
#NOTES:
     dance-single:
     :
     Hard:
     9:
     0.663,0.678,0.252,0.235,0.882,478.000,29.000,27.000,7.000,1.000:
0000
0000
0000
0000
,
0000
0000
0000
0000
,
0000
0000
0000
1000
0000
0000
1000
0000
0001
0000
0000
0000
,
0000
0000
0000
0000
,
0000
0000
0000
0010
0000
0000
0010
0000
0100
0000
0000
0000
,
0000
0000
0000
0000
,
0000
0000
0000
1000
0000
0000
0001
0000
0100
0000
0000
0000
,
0000
0000
0000
0000
,
0000
0000
0000
0010
0000
0000
0100
0000
0001
0000
0000
0000
,
0000
0000
0000
0000
,
0000
0000
0000
0000
0000
0010
0100
0000
0000
0100
0000
0000
,
0000
0000
1000
0000
0000
0000
0100
0000
0000
1000
0000
0100
,
1000
0000
0100
0010
0000
0001
0010
0000
0000
0010
0000
0000
,
0000
0000
0100
0000
0000
0000
0010
0000
0000
0001
0000
0100
,
0010
0000
1000
0100
0000
0010
0100
0000
0000
1000
0000
0010
,
0100
0000
0100
0000
0000
0010
0100
0000
0000
1001
0000
0000
,
0001
0000
1000
0000
0000
0010
0100
0000
0000
1001
0000
0000
,
1000
0000
0010
0000
0000
0100
0001
0000
0000
0010
0000
0000
,
0100
0000
0000
1000
0000
0001
1000
0000
0000
0001
0000
0010
,
0100
0000
0100
0000
0000
1000
0001
0000
0000
0110
0000
0000
,
0100
0000
0001
0000
0000
0010
0001
0000
0000
1100
0000
0000
,
0001
0000
0100
0000
0000
0100
0001
0000
0000
0100
0000
0000
,
0010
0000
0000
1000
0000
0100
0000
0010
0000
0001
0000
0010
,
0000
0100
0000
1000
0000
0001
0000
1000
0000
0001
0000
0000
,
0000
0000
0000
0110
0000
0000
0100
0000
0010
0100
0000
0000
,
0010
0000
0000
2000
0000
0001
0000
0000
0002
3000
0000
0000
,
0000
0000
0000
0003
0000
0000
1000
0000
0010
1000
0000
0000
,
0010
0000
0000
0200
0000
0001
0300
0000
0M02
0000
0000
0103
,
0000
0000
0000
0101
0000
0000
1000
0000
0000
0001
0000
1000
,
0001
0000
0000
0200
0000
0010
0000
0000
0010
0000
0000
0000
,
0300
0000
0010
0000
0000
0010
1000
0000
0000
0100
0000
0000
,
0000
0000
1000
0000
0000
1000
0100
0000
0000
0010
0000
0001
,
0010
0000
0100
1000
0000
0000
0010
0000
0100
0001
0000
0000
,
1000
0000
0000
0002
0000
1000
0000
0000
0010
0000
0000
0000
,
0003
0000
0000
0000
0000
0000
0100
0000
0001
1000
0000
0000
,
0001
0000
0000
1000
0000
0001
0000
0000
0200
0000
0000
0020
,
0000
0000
0000
0330
0000
0000
0100
0000
0010
1000
0000
0000
,
0100
0000
0000
0020
0000
0001
0000
0000
0100
0030
0000
0100
,
1000
0000
0001
0000
0000
0100
0010
0000
0000
1M10
0000
0000
,
1000
0000
0010
0000
0000
0100
0010
0000
0000
1M01
0000
1000
,
0010
0000
0100
0010
0000
0000
1000
0000
0000
0001
0000
0000
,
1000
0000
0100
0000
0000
0010
0100
0000
0000
0010
0000
0000
,
0001
1100
1000
0010
,
0100
0000
0010
0000
0000
1000
0010
0000
0000
0100
0000
0000
,
0001
0010
0001
0010
0000
0000
0100
0000
0000
1000
0000
0000
,
0001
0000
0100
0000
0000
0010
1000
0000
0000
0100
0000
0000
,
0000
0000
0110
0000
0000
1000
0001
0000
0000
0001
0000
0000
,
0000
0000
1001
0000
0000
0100
0001
0000
0000
0100
0000
0000
,
0010
0000
1000
0010
,
0100
0000
0001
0000
0000
1000
0100
0000
0000
1000
0000
0000
,
0010
0101
0100
0001
,
1000
0000
0100
0000
0000
1000
0010
0000
0000
0100
0000
0000
,
0001
0010
0100
1000
0000
0000
0001
0000
0000
1000
0000
0000
,
0001
0000
0100
0000
0000
0010
0100
0000
0000
0001
0000
0000
,
0000
0000
1001
0000
0000
0100
0010
0000
0000
0010
0000
0000
,
0000
0000
0110
0000
0000
1000
0010
0000
0000
0100
0000
0000
,
0001
0000
0000
1000
0000
0100
0000
1000
0000
0001
0000
0010
,
0000
0001
0000
1000
0000
0010
0000
1000
0000
0001
0000
0001
,
0000
0001
0000
0200
0000
0000
0320
0000
0000
2030
0000
0000
,
3001
0000
2000
0000
0000
3010
0000
00M0
0001
0020
0000
0000
,
0031
0000
0100
0000
0000
0010
2000
0000
0000
3200
0000
0000
,
0310
0000
0002
0000
0000
0103
0000
0M00
1000
0002
0000
0000
,
0103
0000
0010
0000
0000
1000
0200
0000
0000
0320
0000
0000
,
0031
0000
2000
0000
0000
3001
0000
000M
0010
0200
0000
0000
,
0310
0000
1000
0000
0000
0100
0020
0000
0000
0230
0000
0000
,
1300
0000
0020
0000
0000
1030
0000
M000
0100
0010
0000
0000
,
0110
0000
0000
1000
0000
0010
0000
1000
0000
0010
0000
0000
,
0100
0000
0100
0000
0100
0000
0110
0000
0000
0001
0000
0100
,
0000
0001
0000
0100
0000
0000
0010
0000
0010
0000
0010
0000
,
1010
0000
0000
0000
0000
0000
1000
0000
0001
1000
0000
0000
,
0010
0000
0100
0010
0000
1000
0001
0000
0100
0010
0000
0000
,
1000
0000
0000
0100
0000
0000
1000
0000
0100
0010
0000
0000
,
0001
0000
1000
0100
0000
0010
0100
0000
1000
0100
0000
0000
,
0010
0000
0000
0001
0000
0000
0100
0000
0010
1000
0000
0000
,
0001
0000
1000
0001
0000
0100
0001
0000
1000
0001
0000
0000
,
0100
0000
0000
0001
0000
0000
1000
0000
0001
0100
0000
0000
,
0010
0000
1000
0010
0000
0100
0010
0000
1000
0010
0000
0000
,
1010
0110
0101
1000
,
0010
0000
0000
0100
0000
0010
0000
0000
1000
0010
0000
0000
,
0100
0010
0101
0100
,
0010
0000
0000
1000
0000
0001
0000
0000
0100
0010
0000
0000
,
1000
0000
0000
0010
1000
0010
1000
0000
0000
0010
0000
0000
,
0100
0000
0000
0010
0000
1000
0000
0000
0010
0100
0000
0000
,
0001
0000
0000
0000
0000
1001
0000
0000
1000
0001
0000
0000
,
1001
0000
0000
0000
0000
1010
0000
0000
1000
0010
0000
0000
,
1000
0010
0000
0100
,
0010
0000
0000
0100
0000
0010
0000
0000
1000
0010
0000
0000
,
0100
0101
0100
0001
,
1000
0000
0000
0010
0000
0100
0000
0000
0010
1000
0000
0000
,
0001
0000
0000
0100
0010
0100
0001
0000
0000
0100
0000
0000
,
0001
0000
0000
1000
0000
0010
0000
0000
0100
0010
0000
0000
,
1000
0000
0000
0000
0000
0110
0000
0000
0100
0010
0000
0000
,
0110
0000
0000
0000
0000
0011
0000
0000
0010
0001
0000
0000
,
0010
0000
0000
0001
0000
0000
1000
0000
0000
0010
0000
0100
,
0000
0000
0010
1000
0000
1000
0010
0000
1000
0000
0001
0000
,
0100
0000
0010
0000
1000
0000
0100
0000
0000
0010
0000
0001
,
0000
0000
0100
0001
0100
0001
0100
0000
0001
0000
1000
0000
,
0010
0000
0100
0000
0010
0000
1000
0000
0000
0001
0000
0100
,
0000
0000
0010
0100
0010
0100
0010
0000
1000
0000
0010
0000
,
0100
0000
0010
0000
1000
0000
0010
0000
0000
0100
0000
0010
,
0000
0000
1000
0001
1000
0001
1000
0000
0100
0000
1000
0000
,
0001
0000
0010
0001
0010
0001
0010
0000
0000
0100
0000
0000
,
1000
0000
0000
0010
0000
0100
0000
0000
0001
1000
0000
0000
,
2020
0000
0001
0000
,
3030
0000
0000
0000
;

//---------------dance-single - ----------------
#NOTES:
     dance-single:
     :
     Medium:
     7:
     0.384,0.450,0.182,0.000,0.348,284.000,21.000,0.000,0.000,0.000:
0000
0000
0000
0000
,
0000
0000
0000
0000
,
0000
0000
0000
1000
0000
0000
0000
0000
1010
0000
0000
0000
,
0000
0000
0000
0000
,
0000
0000
0000
0001
0000
0000
0000
0000
0101
0000
0000
0000
,
0000
0000
0000
0000
,
0000
0000
0000
0100
0000
0000
0000
0000
0110
0000
0000
0000
,
0000
0000
0000
0000
,
0000
0000
0000
0001
0000
0000
0000
0000
1001
0000
0000
0000
,
0000
0000
0000
0000
,
0000
0000
1000
0000
,
1000
0000
0001
0000
,
0001
0000
0100
0000
,
0100
0000
0010
0000
,
0010
0100
0100
0001
,
0000
0000
1000
0000
0000
0000
0010
0000
0000
0100
0000
0000
,
0000
0000
0001
0000
0000
0000
1000
0000
0000
0010
0000
0000
,
0000
0000
0100
0000
0000
0000
0010
0000
0000
1000
0000
0000
,
0010
0100
0010
1000
,
0000
0000
0001
0000
0000
0000
0100
0000
0000
0010
0000
0000
,
0000
0000
1000
0000
0000
0000
0100
0000
0000
0010
0000
0000
,
0000
0000
0001
0000
0000
0000
1000
0000
0000
0010
0000
0000
,
0100
0000
0000
0004
4000
0000
0000
0000
0000
0000
0000
0000
,
0000
3000
0000
0400
0000
0000
0000
0000
0000
0303
0000
0000
,
0000
1001
0100
0010
,
1000
0000
0000
0100
0000
0010
0000
0000
0100
0000
0000
0000
,
0000
0000
0010
0100
,
1000
0000
0000
0001
0000
0010
0000
0000
0100
0000
0000
0100
,
0000
0110
1000
0010
,
0100
0000
0000
0010
0000
1000
0000
0000
0010
0000
0000
0000
,
0000
0000
0100
0000
0000
0000
0100
0000
0000
0010
0000
0000
,
0000
0000
1000
0000
0000
0000
1000
0000
0000
0010
0000
0000
,
0100
0010
1000
0001
,
0100
0000
0000
0001
0000
0100
0000
0000
0001
0000
0000
0000
,
0000
0000
1000
0010
,
0100
0000
0000
0010
0000
0100
0000
0000
0100
0000
0000
0010
,
0000
0000
1000
0100
,
0010
0000
0000
0001
0000
0010
0000
0000
0100
0000
0000
0000
,
0000
0000
1000
0000
0000
0000
1000
0000
0000
0010
0000
0000
,
0000
0000
0100
0000
0000
0000
0100
0000
0000
0001
0000
0000
,
0100
0110
0010
1000
,
0010
0000
0100
0000
0000
0001
0000
0000
0000
0100
0000
0000
,
0000
0000
0010
1000
,
0010
0000
0100
0000
0000
0001
0000
0000
0000
0010
0000
0000
,
0001
0000
0010
0100
,
1000
0000
0001
0000
0000
1000
0000
0000
0000
0010
0000
0000
,
0000
0000
0100
0000
0000
0000
0010
0000
0000
1000
0000
0000
,
0000
0000
0001
0000
0000
0000
0010
0000
0000
0100
0000
0000
,
0010
0000
0100
1000
,
0010
0000
0100
0000
0000
0010
0000
0000
0000
0100
0000
0000
,
0000
0000
0010
1000
,
0010
0000
0100
0000
0000
0010
0000
0000
0000
0100
0000
0000
,
0001
0000
1000
0010
,
0100
0000
0001
0000
0000
1000
0000
0000
0000
0001
0000
0000
,
0000
0000
1000
0000
0000
0000
0001
0000
0000
0100
0000
0000
,
0000
0000
0010
0000
0000
0000
1000
0000
0000
0010
0000
0000
,
0100
0000
0000
0040
4000
0000
0000
0000
0000
0000
0000
0000
,
0000
3000
0400
0000
0000
0000
0330
0000
,
0000
1000
0010
1000
,
0100
0000
0010
0000
0000
0001
0000
0000
0000
0100
0000
0000
,
0010
0000
1000
0000
0000
0000
0010
0000
0000
0100
0000
0000
,
0010
0000
1000
0000
0000
0001
0000
0000
0000
0100
0000
0000
,
0010
0000
1000
0000
0000
0000
0010
0000
0000
0100
0000
0000
,
0010
0000
1000
0000
0000
0001
0000
0000
0000
1000
0000
0000
,
0010
0000
0100
0000
0000
0000
0001
0000
0000
1000
0000
0000
,
0010
0000
0100
0000
0000
0010
0000
0000
0000
1000
0000
0000
,
0001
4000
0000
3001
,
0004
0000
1003
0400
,
0000
0310
0004
0000
,
1003
0000
0010
1000
,
0100
0000
0000
0000
0000
1000
0000
0000
0000
0001
0000
0000
,
0100
0000
0010
0100
,
0001
0000
0000
0000
0000
1000
0000
0000
0000
0010
0000
0000
,
0100
0001
1000
0010
,
0100
0000
0000
0000
0000
0001
0000
0000
0000
1000
0000
0000
,
0010
0000
0100
0010
,
1000
0000
0000
0000
0000
0001
0000
0000
0000
0100
0000
0000
,
0010
1000
0010
0100
,
0010
0000
0000
0100
0000
0010
0000
0000
1000
0000
0000
0000
,
0001
0000
0000
1000
,
0010
0000
0000
0100
0000
0010
0000
0000
1000
0000
0000
0000
,
0010
0100
0110
1000
,
0010
0000
0000
0100
0000
0010
0000
0000
1000
0000
0000
0000
,
0010
0000
0000
0000
0000
1000
0000
0000
0000
0001
0000
0000
,
1000
0000
0000
0000
0000
0010
0000
0000
0000
1000
0000
0000
,
0010
0100
1010
0100
,
0001
0000
0000
0100
0000
0010
0000
0000
1000
0000
0000
0000
,
0010
0000
0000
0100
,
0001
0000
0000
1000
0000
0100
0000
0000
1000
0000
0000
0000
,
0100
1000
0101
0100
,
0001
0000
0000
1000
0000
0010
0000
0000
0100
0000
0000
0000
,
0001
0000
0000
0000
0000
1000
0000
0000
0000
0001
0000
0000
,
0100
0000
0000
0000
0000
0010
0000
0000
0000
1000
0000
0000
,
0010
0000
0000
0100
0000
0000
0010
0000
0000
0000
0000
0110
,
0000
0000
0000
0000
,
0000
0000
0000
0000
0000
0000
1000
0000
0000
0000
0000
1001
,
0000
0000
0000
0000
,
0000
0000
0000
0000
0000
0000
0010
0000
0000
0000
0000
0110
,
0000
0000
0000
0000
,
0000
0000
0000
0000
0000
0000
0100
0000
0000
0000
0000
1001
,
0000
0000
0000
0000
,
0000
0000
0000
0100
,
0010
1000
0010
0100
,
0001
0100
0110
0000
;

//---------------dance-single - ----------------
#NOTES:
     dance-single:
     :
     Easy:
     5:
     0.303,0.361,0.130,0.330,0.000,191.000,15.000,38.000,3.000,0.000:
0000
0000
0000
0000
,
0000
0000
0000
0000
,
0000
2000
0000
0000
,
0000
0000
0000
0000
,
0000
3002
0000
0000
,
0000
0000
0000
0000
,
0000
2003
0000
0000
,
0000
0000
0000
0000
,
0000
3002
0000
0000
,
0000
0000
0000
0000
,
0003
0000
1000
1000
,
0000
0010
0010
0020
,
0000
0030
0100
0100
,
0000
0001
0001
0002
,
0000
0013
0000
0001
,
0000
0200
0000
0302
,
0000
0023
0000
0230
,
0000
2300
0000
3020
,
0000
0130
0000
0100
,
0000
0001
0001
0002
,
0000
1003
1000
2000
,
0000
3010
0010
0020
,
0000
0230
0000
0000
,
0000
0010
0000
0010
,
0300
0010
0000
1000
,
0000
1000
0000
0020
,
0000
0030
0100
0100
,
0000
0001
0000
2000
,
0000
3000
0010
0010
,
0000
1000
0000
0002
,
0003
0110
0000
0010
,
0000
1000
0000
0101
,
0000
0000
0001
0001
,
0000
1000
0000
0020
,
0000
0030
0100
0100
,
0000
0001
0000
0200
,
0000
0300
0010
0010
,
0000
1000
0000
0002
,
0000
0103
0000
1010
,
0000
0101
0000
0020
,
0000
0030
1000
0001
,
0000
1000
0000
0001
,
0000
0000
1000
0001
,
0000
0100
0000
0010
,
0010
0000
0100
0010
,
0000
1000
0000
0001
,
0000
1000
0000
0010
,
0000
0100
0000
0011
,
0001
0001
1000
1000
,
0000
0010
0000
0100
,
0000
0000
0010
0010
,
0000
1000
0000
0001
,
0000
0000
1000
1000
,
0000
0010
0000
0100
,
0000
0001
0000
1000
,
0000
0010
0000
1000
,
0000
0002
0000
0000
,
0000
2000
0003
0001
,
3000
1001
0000
0100
,
0000
0010
0010
0010
,
0000
0100
0001
0100
,
0000
0001
0001
0001
,
0000
1000
0000
0010
,
0000
0100
0100
0100
,
0000
0001
1000
0001
,
0000
0100
0100
0100
,
0000
2000
3000
M000
,
0020
0030
00M0
2000
,
3000
M000
0002
0000
,
0003
0000
1000
0000
,
0010
0000
0100
0000
,
0220
0330
0001
0000
,
1000
0000
0010
0000
,
0101
0100
0100
0000
,
0010
0000
1000
0000
,
2002
3003
0001
0000
,
1000
0000
0010
0000
,
0110
0000
0100
0010
,
0010
0000
1000
0000
,
0010
0000
0000
0100
,
0100
0000
0001
0000
,
1000
0000
0000
0010
,
0010
0000
1000
0000
,
0001
0000
1000
0000
,
0010
0000
0100
0000
,
1010
0000
0000
0010
,
0010
0000
1000
0000
,
0001
0000
0000
1000
,
1000
0000
0010
0000
,
0100
0000
0000
0001
,
0001
0000
1000
0000
,
0010
0000
0100
0000
,
0001
0000
1000
0000
,
0010
0000
1002
0000
,
0000
0000
0000
0000
,
0000
0003
0201
0000
,
0000
0000
0000
0000
,
0000
0300
2010
0000
,
0000
0000
0000
0000
,
0000
3000
0120
0000
,
0000
0000
0000
0000
,
0000
0030
0000
0001
,
1000
0000
0010
0000
,
0100
0000
0020
0000
,
0030
0000
0000
0000
;

//---------------dance-single - ----------------
#NOTES:
     dance-single:
     :
     Beginner:
     1:
     0.133,0.225,0.052,0.000,0.000,101.000,6.000,0.000,0.000,0.000:
0000
0000
0000
0000
,
0000
0000
0000
0000
,
0000
0000
0000
0000
,
0000
0000
0000
0000
,
0000
0000
0000
0000
,
0000
0000
0000
0000
,
0000
0000
0000
0000
,
0000
0000
0000
0000
,
0000
0000
0000
0000
,
0000
0000
0000
0000
,
0000
0000
1000
0000
,
0000
0000
0000
0000
,
0000
0000
0100
0000
,
0000
0000
0000
0000
,
0000
1000
0000
0000
,
0000
0010
0000
0000
,
0000
0100
0000
0000
,
0000
0001
0000
0000
,
0000
1000
0000
0000
,
0000
0010
0000
0000
,
0000
0100
0000
0000
,
0000
0010
0000
0000
,
0000
1001
0000
0000
,
0000
0001
0000
0000
,
0000
0000
0100
0000
,
0000
0010
0000
0000
,
0000
0000
1000
0000
,
0000
0010
0000
0000
,
0000
0000
0100
0000
,
0000
0010
0000
0000
,
0000
1000
0000
0000
,
0000
0001
0000
0000
,
0000
0000
0100
0000
,
0000
0010
0000
0000
,
0000
0000
1000
0000
,
0000
0010
0000
0000
,
0000
0000
0100
0000
,
0000
0010
0000
0000
,
0000
1000
0000
0000
,
0000
0010
0000
0000
,
0000
0000
0100
0000
,
0000
0000
0000
0001
,
0000
0000
1000
0000
,
0000
0000
0000
0010
,
0000
0000
0100
0000
,
0000
0000
0000
0001
,
0000
0000
0000
1000
,
0000
0000
0000
0001
,
0000
0000
0100
0000
,
0000
0000
0000
0010
,
0000
0000
1000
0000
,
0000
0000
0000
0001
,
0000
0000
0100
0000
,
0000
0000
0000
0001
,
0000
0000
0000
0100
,
0000
0000
0000
0010
,
0000
0110
0000
0000
,
0000
0001
0000
1000
,
0000
0001
0000
0000
,
0000
1000
0000
0000
,
0000
0010
0000
0000
,
0000
0100
0000
0000
,
0000
0001
0000
0000
,
0000
1000
0000
0000
,
0000
0010
0000
0000
,
0000
0100
0000
0000
,
0000
0001
0000
0001
,
0000
0000
0100
0000
,
0000
0010
0000
0000
,
1000
0000
0010
0000
,
1000
0000
0000
0000
,
0001
0000
0100
0000
,
0001
0000
0000
0000
,
1000
0000
0001
0000
,
1000
0000
0000
0000
,
0010
0000
0100
0000
,
0010
0000
0000
0000
,
0000
0000
0000
0001
,
0000
0000
1000
0000
,
1000
0000
0000
0010
,
0000
0000
1000
0000
,
1000
0000
0000
0001
,
0000
0000
0100
0000
,
0100
0000
0000
0000
,
0110
0000
0000
0000
,
1001
0000
0000
1000
,
0000
0000
0010
0000
,
0010
0000
0000
0100
,
0000
0000
0001
0000
,
0001
0000
0000
1000
,
0000
0000
0001
0000
,
0001
0000
0000
0000
,
0101
0000
0000
0000
,
0101
0000
1000
0000
,
0000
0000
0000
0000
,
0000
0000
0001
0000
,
0000
0000
0000
0000
,
0000
0000
1000
0000
,
0000
0000
0000
0000
,
0000
0000
0001
0000
,
0000
0000
0000
0000
,
0000
0000
0000
0100
,
0000
0000
0010
0000
,
0010
0000
0100
0000
;
